<?xml version="1.0" standalone="no"?>
<!DOCTYPE svg PUBLIC "-//W3C//DTD SVG 1.1//EN" "http://www.w3.org/Graphics/SVG/1.1/DTD/svg11.dtd" >
<svg xmlns="http://www.w3.org/2000/svg">
<metadata>Generated by IcoMoon</metadata>
<defs>
<font id="icomoon" horiz-adv-x="1024">
<font-face units-per-em="1024" ascent="960" descent="-64" />
<missing-glyph horiz-adv-x="1024" />
<glyph unicode="&#x20;" horiz-adv-x="512" d="" />
<glyph unicode="&#xe900;" glyph-name="arrow-down" horiz-adv-x="1755" d="M146.286 813.714c-50.322-62.903-90.99-114.688-90.405-115.273l821.833-657.115 821.833 657.115c0.585 0.585-40.082 52.37-90.405 115.273-81.774 102.254-92.014 113.957-96.256 110.299-2.487-2.341-146.578-117.614-319.927-256.146l-315.246-252.050-315.246 252.050c-299.051 234.758-403.176 318.649-507.128 402.745l187.201-146.598c-4.242 3.657-14.482-8.046-96.256-110.299z" />
<glyph unicode="&#xe901;" glyph-name="arrow-left" horiz-adv-x="1081" d="M236.601 699.904l-193.024-212.821 6.599-6.258c3.584-3.47 13.084-12.174 20.992-19.399l14.393-13.028-14.393-13.084c-7.908-7.168-17.408-15.872-20.992-19.342l-6.599-6.315 133.348-146.83c-175.745 196.694-112.658 127.39-49.6 58.061l242.851-270.939 59.961-66.048 41.7 37.831c22.983 20.821 41.529 38.457 41.244 39.253-71.377 79.865-120.036 133.606-168.9 187.157l19.851-22.065-148.537 163.726 836.551 0.91v113.493l-838.144 0.91 149.276 164.636c30.137 32.715 79.070 86.747 127.788 140.975l22.114 25.026c0.398 1.024-60.7 57.628-79.815 73.899-3.527 2.958-8.59-2.446-196.665-209.749z" />
<glyph unicode="&#xe902;" glyph-name="arrow-right" horiz-adv-x="1081" d="M609.052 875.008c-22.983-20.821-41.529-38.457-41.244-39.196 0.341-0.796 67.755-75.492 149.902-166.059l149.276-164.636-838.144-0.91v-113.493l836.551-0.91-148.537-163.726c-30.578-33.208-79.233-86.943-127.666-140.88l-21.383-24.211c-0.284-0.796 18.261-18.432 41.188-39.253l41.756-37.888 59.904 66.105 326.713 359.708-6.656 6.315c-3.641 3.47-13.084 12.117-20.992 19.285l-14.393 13.028 14.393 13.084c7.908 7.225 17.408 15.986 20.992 19.456l6.599 6.258-386.56 425.813-41.7-37.888z" />
<glyph unicode="&#xe903;" glyph-name="circle1" d="M1024 448c0-282.77-229.23-512-512-512s-512 229.23-512 512c0 282.77 229.23 512 512 512s512-229.23 512-512z" />
<glyph unicode="&#xe904;" glyph-name="instagram" d="M341.333 832c-117.632 0-213.333-95.701-213.333-213.333v-341.333c0-117.632 95.701-213.333 213.333-213.333h341.333c117.632 0 213.333 95.701 213.333 213.333v341.333c0 117.632-95.701 213.333-213.333 213.333h-341.333zM341.333 746.667h341.333c70.571 0 128-57.429 128-128v-341.333c0-70.571-57.429-128-128-128h-341.333c-70.571 0-128 57.429-128 128v341.333c0 70.571 57.429 128 128 128zM725.333 704c-23.564 0-42.667-19.103-42.667-42.667v0c0-23.564 19.103-42.667 42.667-42.667v0c23.564 0 42.667 19.103 42.667 42.667v0c0 23.564-19.103 42.667-42.667 42.667v0zM512 661.333c-117.632 0-213.333-95.701-213.333-213.333s95.701-213.333 213.333-213.333c117.632 0 213.333 95.701 213.333 213.333s-95.701 213.333-213.333 213.333zM512 576c70.571 0 128-57.429 128-128s-57.429-128-128-128c-70.571 0-128 57.429-128 128s57.429 128 128 128z" />
<glyph unicode="&#xe905;" glyph-name="Group-2260" horiz-adv-x="1280" d="M575.718-64h-204.593l-371.125 1024h575.718v-1024zM1279.966-64h-204.595l-371.121 1024h575.716v-1024z" />
<glyph unicode="&#xe906;" glyph-name="reviews" horiz-adv-x="627" d="M627.031 960h-627.031v-605.324h187.098l-184.477-418.676h85.964l538.446 418.676v605.324z" />
<glyph unicode="&#xe907;" glyph-name="dimensions" d="M837.165 943.629c5.070-0.628 9.999-2.884 13.907-6.791l152.464-152.488c9.304-9.302 9.304-24.372 0-33.674l-24.976-25.047-55.348 55.349-16.836-16.837 55.348-55.349-43.63-43.534-55.348 55.348-16.836-16.836 55.348-55.351-43.534-43.558-55.348 55.351-16.839-16.839 55.351-55.348-43.537-43.534-55.348 55.348-16.836-16.836 55.348-55.348-43.441-43.513-55.348 55.348-16.839-16.836 55.351-55.348-43.537-43.534-55.348 55.348-16.836-16.839 55.348-55.348-43.627-43.603-55.351 55.348-16.836-16.836 55.348-55.351-43.534-43.51-55.348 55.348-16.836-16.836 55.348-55.348-43.534-43.558-55.351 55.348-16.836-16.839 55.348-55.348-43.534-43.534-55.348 55.348-16.839-16.836 55.351-55.348-43.537-43.537-55.348 55.351-16.836-16.839 55.348-55.348-43.534-43.534-55.348 55.348-16.839-16.836 55.351-55.348-43.537-43.558-55.348 55.348-16.837-16.839 55.349-55.348-25.070-25.045c-7.395-7.397-18.465-8.909-27.349-4.537-2.279 1.117-4.419 2.629-6.326 4.537l-152.512 152.488c-2.139 2.138-3.814 4.603-4.977 7.232-1.302 2.929-1.953 6.046-2 9.185-0.093 6.234 2.233 12.49 6.977 17.256l85.489 85.442 68.232-68.208 16.837 16.836-68.232 68.21 103.814 103.905 68.233-68.208 16.836 16.836-68.232 68.21 104 103.929 68.232-68.208 16.836 16.836-68.232 68.21 103.907 103.953 68.232-68.21 16.839 16.839-68.234 68.208 103.907 103.907 68.232-68.208 16.839 16.836-68.234 68.209 103.907 103.907 68.232-68.209 16.839 16.837-68.234 68.209 85.442 85.419c5.396 5.395 12.745 7.674 19.768 6.791z" />
<glyph unicode="&#xe908;" glyph-name="social" horiz-adv-x="656" d="M0 259.101c0-178.446 146.866-323.101 328.035-323.101s328.035 144.654 328.035 323.101c0 178.442-146.866 323.097-328.035 323.097s-328.035-144.655-328.035-323.097zM116.691 960l61.385-428.575 446.56-134.138-207.563 562.712h-300.382z" />
<glyph unicode="&#xe909;" glyph-name="tag" horiz-adv-x="1055" d="M637.235 935.089l333.151 4.606c30.068 0.416 54.554-24.068 54.139-54.139l-4.608-333.148c-0.192-13.908-5.8-27.192-15.636-37.025l-562.446-562.446c-20.855-20.859-54.672-20.859-75.528 0l-328.543 328.543c-20.856 20.855-20.856 54.672 0 75.528l562.446 562.446c9.834 9.835 23.118 15.445 37.025 15.637zM902.535 693.105c35.455 35.456 35.455 92.94 0 128.396s-92.942 35.456-128.397 0c-35.455-35.456-35.455-92.941 0-128.396s92.942-35.456 128.397 0z" />
<glyph unicode="&#xe90a;" glyph-name="unboxing" horiz-adv-x="619" d="M619.055-64h-176.858l-442.196 1024h619.055v-1024z" />
<glyph unicode="&#xe90b;" glyph-name="video" horiz-adv-x="584" d="M584.496 960v-630.15c0-217.514-175.762-393.846-392.578-393.846l-191.918-0.005v308.432c16.481-0.14 99.698-0.263 159.788-0.326 54.030-0.059 97.693 43.719 97.693 97.923v48.758h-257.481v569.213h584.496z" />
<glyph unicode="&#xe90c;" glyph-name="linkedin" d="M307.2 106.667h-170.667v512h170.667v-512zM221.901 686.933c-47.206 0-85.367 38.263-85.367 85.367s38.229 85.299 85.367 85.299c47.036 0 85.299-38.263 85.299-85.299 0-47.104-38.263-85.367-85.299-85.367zM921.6 106.667h-164.079v249.173c0 59.426-1.126 135.851-85.299 135.851-85.436 0-98.577-64.717-98.577-131.55v-253.474h-164.045v512.375h157.491v-70.007h2.219c21.914 40.277 75.469 82.739 155.341 82.739 166.229 0 196.949-106.121 196.949-244.087 0 0 0-281.020 0-281.020z" />
<glyph unicode="&#xe90d;" glyph-name="globe" d="M472.955 959.304c16.725 1.42 75.213 0.526 92.363-1.413 84.669-9.568 160.532-37.187 230.124-83.781 30.199-20.219 54.072-40.139 80.909-67.514 40.806-41.624 71.073-84.555 96.044-136.227 27.389-56.678 45.609-124.252 49.123-182.18 0.388-6.396 1.104-11.38 1.593-11.077 0.49 0.303 0.889-12.149 0.889-27.668 0-15.521-0.398-28.466-0.885-28.767s-1.2-5.752-1.586-12.112c-1.416-23.343-6.777-56.822-13.311-83.095-19.977-80.349-58.062-152.984-113.165-215.823-12.338-14.070-40.773-41.959-54.213-53.172-70.871-59.123-153.284-97.706-241.082-112.865-153.991-26.589-308.701 17.186-426.329 120.629-14.049 12.355-41.899 40.833-53.095 54.292-58.344 70.137-96.624 151.613-112.201 238.816-26.779 149.909 13.182 300.961 110.877 419.104 12.794 15.471 49.402 52.133 64.855 64.95 83.232 69.029 180.452 108.68 289.090 117.903zM472.433 919.558c-61.166-5.643-118.208-21.715-171.053-48.2-20.825-10.437-28.812-15.107-50.72-29.648-45.16-29.972-83.242-65.831-115.557-108.809-11.239-14.947-18.030-24.915-18.030-26.463 0-0.63 1.846-3.596 4.103-6.589 5.12-6.794 9.439-15.954 9.463-20.075 0.010-1.725-0.781-9.819-1.759-17.989-1.701-14.225-1.696-15.11 0.121-20.903 2.87-9.15 13.431-19.161 27.83-26.38 5.964-2.99 10.99-5.582 11.167-5.761 0.178-0.178-0.244-4.394-0.939-9.371l-1.264-9.046 14.418-13.182 7.306-27.974 10.815-8.271c13.090-10.012 14.207-12.022 13.43-24.166-0.731-11.434-3.196-17.146-14.098-32.666-14.225-20.252-17.891-26.296-19.677-32.451-2.149-7.404-2.108-25.814 0.076-33.963 0.895-3.334 1.625-9.020 1.625-12.636 0-8.964 3.4-15.464 17.007-32.515 11.276-14.131 19.624-22.642 28.217-28.763 4.734-3.373 5.007-3.82 4.454-7.273-2.705-16.876-1.385-24.709 5.473-32.512 3.169-3.607 3.972-5.297 3.681-7.749-1.739-14.634-5.092-35.988-6.728-42.85-2.703-11.34-2.674-23.871 0.069-28.995l2.076-3.879-2.763-17.007c-1.684-10.358-2.801-21.504-2.86-28.505-0.086-10.329 0.189-12.133 2.702-17.766 2.096-4.702 3.466-11.072 5.473-25.46 2.504-17.955 2.918-19.588 6.448-25.408 11.002-18.135 27.146-35.262 38.992-41.367 8.031-4.14 11.805-4.497 11.027-1.046-1.962 8.698-8.903 47.898-8.903 50.281 0 1.609 3.084 9.65 6.851 17.867 6.739 14.699 7.017 15.105 16.959 24.842 6.779 6.638 14.923 13.095 24.721 19.602 8.035 5.335 15.723 10.698 17.080 11.916 2.623 2.351 11.523 15.187 18.907 27.269 4.729 7.737 22.377 30.929 24.39 32.051 0.658 0.366 4.867 1.668 9.354 2.889 20.816 5.671 26.35 9.381 38.059 25.508 11.35 15.635 11.758 16.421 20.053 38.625l6.548 17.521 6.454 5.081c11.065 8.708 17.535 21.197 18.967 36.605 0.63 6.808 0.473 7.695-2.051 11.514-8.063 12.202-30.242 25.065-53.261 30.893-10.303 2.608-10.145 2.475-16.325 13.746-2.251 4.106-6.437 10.389-9.299 13.963-2.863 3.572-5.998 8.915-6.963 11.87-7.528 23.022-27.019 42.555-54.171 54.282-7.759 3.351-10.753 5.379-17.221 11.66-8.297 8.059-16.216 12.746-26.666 15.787-7.894 2.294-25.9 11.112-30.939 15.149-9.924 7.949-17.171 6.862-24.124-3.623-9.629-14.525-22.039-15.601-40.024-3.474-6.469 4.359-8.659 6.533-10.759 10.677-2.417 4.763-2.635 6.306-2.589 18.29 0.026 7.199 0.351 14.969 0.721 17.269 0.638 3.982 0.474 4.317-3.483 7.073-4.396 3.063-6.178 6.214-5.337 9.438 0.282 1.078 4.144 4.968 8.583 8.645 9.193 7.616 11.365 11.33 9.402 16.075-0.701 1.695-2.481 3.877-3.956 4.844-2.414 1.583-3.555 1.624-11.369 0.405-10.148-1.58-15.711-0.48-19.771 3.906-4.744 5.127-5.578 12.291-2.927 25.148 2.033 9.858 2.42 10.612 9.702 18.979 10.565 12.14 25.366 21.181 40.49 24.733 13.676 3.211 30.278 0.132 38.565-7.156 4.598-4.042 6.167-7.123 7.6-14.912 1.801-9.798 4.065-15.601 7.756-19.877 2.875-3.328 3.844-3.837 6.203-3.243 3.296 0.827 2.87-0.78 7.077 26.8 1.798 11.783 3.574 21.729 3.945 22.101 0.373 0.372 5.149 2.506 10.614 4.741 12.323 5.041 20.999 9.864 32.307 17.959 7.371 5.277 9.093 6.097 10.827 5.168 3.711-1.988 12.566-0.222 21.503 4.291 4.639 2.342 13.239 5.708 19.112 7.48 9.22 2.781 12.604 3.264 24.768 3.54 17.989 0.408 24.022 2.111 27.604 7.796 5.628 8.928 11.766 10.661 18.97 5.356 4.917-3.622 12.42-5.885 16.287-4.912 8.648 2.174 14.143 12.741 16.849 32.41l0.554 4.026-3.866-0.758c-2.126-0.417-4.57-0.818-5.432-0.891-2.98-0.253-2.145 4.084 2.168 11.242 2.382 3.956 4.574 9.020 4.874 11.254 0.499 3.724 0.206 4.346-3.496 7.439-2.222 1.856-6.646 6.081-9.83 9.385-4.725 4.905-6.416 6.010-9.197 6.010-3.991 0-8.205-1.984-11.132-5.24-2.964-3.295-10.161-8.107-13.313-8.899-1.703-0.427-4.422 0.101-7.474 1.454-5.396 2.39-5.148 2.522-9.985-5.3-5.241-8.475-21.068-18.010-28.804-17.355-6.293 0.534-8.264 4.194-8.237 15.302 0.031 12.738 1.284 15.674 8.583 20.086 3.287 1.986 10.834 7.255 16.772 11.711 12.066 9.052 14.898 9.848 18.583 5.226 2.026-2.54 2.951-2.859 7.951-2.744 3.114 0.072 6.78 0.731 8.15 1.464 1.368 0.734 6.818 1.56 12.11 1.837l9.623 0.505 5.271-3.875c2.901-2.132 6.418-5.341 7.818-7.131l2.544-3.257 7.645 6.771c4.204 3.723 10.796 9.245 14.645 12.271 7.856 6.176 7.699 4.862 1.998 16.845-2.395 5.037-2.885 6.953-1.928 7.562 0.704 0.448 4.911 0.822 9.348 0.831 7.794 0.015 8.093-0.075 8.741-2.662 0.475-1.898-0.888-6.713-4.677-16.52-4.125-10.677-5.348-15.164-5.348-19.626 0-11.669 7.194-32.265 14.147-40.503 3.741-4.431 10.651-9.512 12.939-9.512 0.948 0 5.222 4.333 9.497 9.628 10.556 13.078 27.97 33.476 29.825 34.936 0.831 0.654 5.944 1.99 11.362 2.966l9.849 1.777 8.113 12.783c7.722 12.172 8.41 12.929 14.373 15.845 5.288 2.587 6.817 4.004 9.825 9.113l3.562 6.050 3.269-3.176c1.801-1.746 4.219-3.175 5.376-3.175 2.785 0 8.65 5.997 6.573 6.723-19.771 6.915-57.417 14.96-88.636 18.944-15.465 1.974-76.234 2.913-92.341 1.428zM764.096 842.161c-2.554-9.498-4.696-10.795-20.783-12.587l-11.435-1.273-0.714-5.728c-0.929-7.437 0.146-22.283 2.074-28.701 3.224-10.721 5.93-12.87 18.893-14.997 4.962-0.815 5.435-1.186 9.646-7.604 2.434-3.711 5.018-7.067 5.74-7.459s5.282-1.238 10.136-1.881 9.191-1.536 9.639-1.984c0.445-0.446 0.285-4.794-0.357-9.661-1.125-8.531-1.068-9.080 1.583-15.348 1.513-3.575 2.749-6.99 2.749-7.588 0-1.328-10.451-15.557-13.172-17.933-1.080-0.941-5.013-3.569-8.745-5.837-6.050-3.679-7.741-4.194-15.654-4.767-9.887-0.717-18.218-3.253-26.77-8.154-4.2-2.405-5.547-3.72-5.078-4.947 2.56-6.681 17.047-30.142 21.149-34.25 5.834-5.843 13.774-9.819 19.57-9.801 3.562 0.010 27.14 5.372 28.173 6.406 0.195 0.196 1.113 6.233 2.044 13.419 1.757 13.587 3.312 20.903 4.443 20.903 0.363 0 1.426-0.695 2.364-1.543 0.936-0.848 7.449-4.157 14.474-7.351 12.739-5.791 12.78-5.802 15.849-3.985 4.333 2.563 5.341 1.075 6.243-9.206 0.693-7.902 1.028-8.861 4.042-11.557 4.669-4.178 7.648-3.792 13.58 1.764 2.762 2.586 5.587 4.703 6.276 4.703 1.235 0 3.281-4.156 6.76-13.72 2.047-5.625 4.836-8.555 7.263-7.623 0.939 0.361 3.395 2.961 5.461 5.78 2.066 2.816 4.163 4.868 4.662 4.56s1.697-3.382 2.662-6.827c2.456-8.764 8.792-13.482 18.163-13.524 11.679-0.051 22.995-11.299 27.657-27.49 1.808-6.279 1.501-9.819-0.731-8.438-0.696 0.432-9.504 1.049-19.574 1.372l-18.309 0.59-14.924 11.497c-24.060 18.534-26.355 19.987-34.512 21.845-4.033 0.919-11.937 1.676-17.563 1.684-8.182 0.010-11.903 0.56-18.58 2.746-6.701 2.193-11.080 2.835-22.177 3.258-15.84 0.603-20.48-0.11-40.322-6.195-15.208-4.664-15.439-4.822-26.314-18.128-7.405-9.061-8.442-9.801-20.591-14.675-11.391-4.57-21.405-14.825-26.826-27.474-2.371-5.53-2.376-5.639-0.524-10.799 2.541-7.074 1.738-13.814-4.621-38.789-5.81-22.818-8.388-38.445-8.388-50.843 0-15.205 0.464-16.090 16.57-31.566 23.112-22.208 42.557-35.663 57.999-40.135 5.433-1.571 9.289-1.71 30.787-1.109 29.123 0.816 34.421 0.026 40.637-6.052 4.5-4.4 5.993-4.564 13.425-1.48 4.959 2.058 5.685 2.13 7.12 0.692 0.881-0.881 2.284-5.527 3.12-10.326 1.875-10.758 0.986-16.653-4.871-32.272-8.761-23.355-8.966-27.208-2.503-47.010 5.933-18.179 6.849-23.1 5.664-30.4-1.476-9.090-6.246-17.317-16.612-28.646-9.981-10.909-14.928-18.666-19.273-30.224-3.426-9.115-3.4-15.168 0.151-33.969 2.387-12.638 2.64-15.623 1.649-19.339-0.645-2.417-5.952-14.74-11.794-27.385-17.132-37.085-17.837-39.727-12.879-48.198 4.576-7.822 2.63-15.878-6.65-27.513-3.411-4.276-3.518-4.334 14.127 7.545 83.526 56.237 147.269 138.641 181.277 234.356 24.38 68.612 32.307 144.426 22.897 218.952-4.542 35.978-15.002 76.368-29.095 112.353-6.913 17.657-23.839 51.734-34.128 68.719-35.195 58.093-81.57 107.685-135.892 145.315-6.966 4.825-13.229 9.096-13.919 9.492-0.837 0.48-1.65-0.746-2.434-3.658zM0.642 448.275c0-15.808 0.145-22.275 0.322-14.371 0.176 7.904 0.176 20.837 0 28.742-0.177 7.902-0.322 1.437-0.322-14.371z" />
<glyph unicode="&#xe90e;" glyph-name="weight" horiz-adv-x="1210" d="M609.115 960c-128.826 0-233.538-104.712-233.538-233.538h-140.057c-8.258 0-15.855-2.973-21.471-7.928-4.625-4.294-8.258-9.579-10.24-16.186l-202.488-724.397c-2.643-9.249-0.991-18.168 3.303-25.765 5.615-9.579 16.186-16.186 28.408-16.186h1143.577c10.57 0 19.819 4.955 25.765 12.222 6.276 7.928 9.249 18.828 6.276 29.729l-202.488 724.397c-3.964 14.204-17.177 24.114-31.711 24.114h-131.138c0 128.826-104.382 233.538-233.538 233.538zM734.968 726.462h-251.706c0 69.368 56.485 125.853 125.853 125.853s125.853-56.155 125.853-125.853zM860.49 290.436c0 7.267 0 13.874-0.661 20.81h-137.414v-54.173h70.028c-6.937-15.525-18.828-27.747-34.023-35.345l-4.625-1.982c-8.919-3.634-19.159-5.615-29.729-5.615-22.462 0-42.281 8.588-56.485 22.792-9.249 9.249-15.855 20.48-20.15 33.693-2.643 8.588-3.964 17.837-3.964 27.747 0 49.548 33.032 85.884 77.956 85.884 29.068 0 53.182-15.195 66.065-39.308l55.825 31.381c-23.453 42.942-68.377 72.010-121.889 72.010-82.25 0-145.672-65.404-145.672-148.315s64.413-148.315 148.315-148.315c76.965 0 136.423 61.44 136.423 138.735zM414.225 284.16l95.794-126.183h80.599l-113.961 146.333 106.364 138.075h-75.644l-93.151-125.192v125.192h-65.734v-284.408h65.734v126.183z" />
<glyph unicode="&#xe90f;" glyph-name="ASIN-number" d="M525.719 785.849l274.849 3.8c24.806 0.343 45.007-19.856 44.664-44.665l-3.802-274.847c-0.159-11.474-4.785-22.433-12.9-30.546l-464.018-464.018c-17.206-17.208-45.105-17.208-62.31 0l-271.048 271.048c-17.206 17.206-17.206 45.105 0 62.31l464.018 464.018c8.113 8.114 19.072 12.742 30.546 12.901zM744.591 586.212c29.251 29.251 29.251 76.675 0 105.928-29.251 29.25-76.677 29.25-105.928 0-29.251-29.253-29.251-76.677 0-105.928s76.677-29.251 105.928 0z" />
<glyph unicode="&#xe910;" glyph-name="toggle" horiz-adv-x="1182" d="M531.384-24.615h-188.856l-342.577 945.231h531.432v-945.231zM1181.538-24.615h-188.857l-342.575 945.231h531.432v-945.231z" />
<glyph unicode="&#xe911;" glyph-name="verified" horiz-adv-x="993" d="M518.423 871.437c39.803-58.404 114.046-82.528 180.578-58.673l14.746 5.288c20.589 7.382 42.148-8.282 41.491-30.144l-0.472-15.66c-2.129-70.645 43.756-133.8 111.6-153.607l15.040-4.391c20.995-6.128 29.231-31.474 15.847-48.773l-9.585-12.394c-43.247-55.901-43.247-133.967 0-189.868l9.585-12.39c13.383-17.299 5.148-42.645-15.847-48.777l-15.040-4.388c-67.845-19.807-113.729-82.963-111.6-153.609l0.472-15.661c0.658-21.861-20.902-37.525-41.491-30.143l-14.746 5.288c-66.532 23.856-140.775-0.267-180.578-58.672l-8.822-12.946c-12.319-18.075-38.968-18.075-51.284 0l-8.825 12.946c-39.803 58.405-114.046 82.528-180.575 58.672l-14.748-5.288c-20.588-7.382-42.148 8.282-41.489 30.143l0.472 15.661c2.128 70.647-43.757 133.803-111.602 153.609l-15.040 4.388c-20.995 6.132-29.231 31.477-15.847 48.777l9.587 12.39c43.246 55.901 43.246 133.967 0 189.868l-9.587 12.394c-13.383 17.299-5.148 42.645 15.847 48.773l15.040 4.391c67.845 19.807 113.73 82.961 111.602 153.607l-0.472 15.66c-0.658 21.862 20.901 37.526 41.489 30.144l14.748-5.288c66.529-23.855 140.772 0.269 180.575 58.673l8.825 12.947c12.316 18.074 38.965 18.074 51.284 0l8.822-12.947zM560.885 919.334c-36.954 54.222-116.9 54.222-153.851 0l-8.825-12.947c-23.881-35.043-68.428-49.516-108.344-35.204l-14.748 5.288c-61.766 22.146-126.444-24.846-124.468-90.432l0.472-15.66c1.277-42.387-26.254-80.28-66.961-92.164l-15.039-4.39c-62.987-18.388-87.692-94.424-47.543-146.322l9.587-12.39c25.948-33.544 25.948-80.381 0-113.922l-9.587-12.394c-40.149-51.898-15.444-127.932 47.543-146.32l15.039-4.391c40.707-11.885 68.238-49.779 66.961-92.163l-0.472-15.661c-1.976-65.586 62.703-112.578 124.468-90.432l14.748 5.288c39.916 14.311 84.464-0.161 108.344-35.204l8.825-12.946c36.951-54.222 116.897-54.222 153.851 0l8.822 12.946c23.881 35.043 68.428 49.515 108.345 35.204l14.749-5.288c61.766-22.146 126.445 24.846 124.469 90.432l-0.472 15.661c-1.278 42.384 26.255 80.278 66.96 92.163l15.040 4.391c62.985 18.389 87.692 94.422 47.542 146.32l-9.585 12.394c-25.948 33.541-25.948 80.378 0 113.922l9.585 12.39c40.15 51.898 15.444 127.934-47.542 146.322l-15.040 4.39c-40.706 11.884-68.239 49.777-66.96 92.164l0.472 15.66c1.977 65.586-62.703 112.578-124.469 90.432l-14.749-5.288c-39.917-14.313-84.464 0.161-108.345 35.204l-8.822 12.947zM697.958 623.607c12.117-12.117 12.117-31.766 0-43.883l-265.759-265.759c-14.541-14.541-38.118-14.541-52.658 0l-96.918 96.917c-12.118 12.12-12.118 31.766 0 43.883 12.118 12.12 31.767 12.12 43.884 0l79.363-79.363 248.205 248.205c12.117 12.117 31.763 12.117 43.883 0z" />
<glyph unicode="&#xe912;" glyph-name="submitted" horiz-adv-x="922" d="M416.584 412.341c6.765 6.765 16.060 10.38 25.617 9.967l229.939-9.998c18.831-0.819 33.437-16.753 32.618-35.584-0.819-18.835-16.749-33.437-35.584-32.621l-142.271 6.188 322.847-322.85c13.332-13.329 13.332-34.942 0-48.271-13.329-13.329-34.939-13.329-48.271 0l-322.847 322.85 6.185-142.271c0.819-18.835-13.783-34.765-32.618-35.584s-34.765 13.783-35.584 32.618l-9.998 229.939c-0.416 9.557 3.202 18.852 9.967 25.617zM277.678 960h509.638c56.556 0 102.4-45.846 102.4-102.4v-612.14c0-18.852-15.281-34.133-34.133-34.133s-34.133 15.281-34.133 34.133v612.14c0 18.851-15.281 34.133-34.133 34.133h-461.367v-192.323c0-22.622-18.338-40.96-40.96-40.96h-192.323v-616.89c0-18.848 15.282-34.133 34.133-34.133h476.060c18.852 0 34.133-15.281 34.133-34.133 0-18.848-15.281-34.133-34.133-34.133h-476.060c-56.554 0-102.4 45.848-102.4 102.4v665.162l253.278 253.278zM140.939 726.717h116.744v116.745l-116.744-116.745z" />
<glyph unicode="&#xe913;" glyph-name="completed" d="M926.477 458.835c0-234.894-190.418-425.313-425.313-425.313s-425.313 190.418-425.313 425.313c0 234.894 190.419 425.313 425.313 425.313 89.725 0 172.961-27.784 241.573-75.217 16.399-11.338 38.855-10.157 52.653 4.238 15.25 15.913 13.945 41.525-4.016 54.303-81.89 58.265-182.048 92.529-290.209 92.529-276.786 0-501.165-224.379-501.165-501.165 0-276.783 224.379-501.165 501.165-501.165 276.783 0 501.165 224.381 501.165 501.165 0 57.666-9.739 113.057-27.663 164.621-9.015 25.933-41.889 31.271-60.886 11.449-10.676-11.139-13.695-27.44-8.837-42.083 13.972-42.125 21.534-87.17 21.534-133.986zM790.759 673.085c14.81-14.811 14.81-38.824 0-53.635l-324.817-324.814c-17.772-17.772-46.588-17.772-64.364 0l-118.452 118.454c-14.811 14.81-14.811 38.825 0 53.635s38.824 14.81 53.635 0l97-96.999 303.358 303.36c14.814 14.811 38.825 14.811 53.639 0z" />
<glyph unicode="&#xe914;" glyph-name="average-length" horiz-adv-x="1950" d="M100 903c0 26.931-21.831 48.762-48.762 48.762s-48.762-21.831-48.762-48.762v-902.093c0-26.931 21.831-48.762 48.762-48.762s48.762 21.831 48.762 48.762v902.093zM1855.429 951.762c26.931 0 48.762-21.831 48.762-48.762v-902.093c0-26.931-21.831-48.762-48.762-48.762s-48.762 21.831-48.762 48.762v902.093c0 26.931 21.831 48.762 48.762 48.762zM396.915 478.374c-4.735-7.329-7.557-16.013-7.76-25.337l-0.012-1.229c0.040-13.712 5.738-26.088 14.881-34.923l321.577-321.58c19.042-19.042 49.918-19.042 68.959 0s19.042 49.918 0 68.959l-238.924 238.928h795.394l-238.928-238.928c-19.042-19.042-19.042-49.918 0-68.959 19.046-19.042 49.918-19.042 68.964 0l320.195 320.195c10.045 8.933 16.369 21.953 16.369 36.454 0 14.404-6.246 27.351-16.179 36.277l-320.385 320.388c-19.046 19.043-49.918 19.043-68.964 0-19.042-19.042-19.042-49.917 0-68.96l238.948-238.946h-795.433l238.943 238.946c19.042 19.042 19.042 49.917 0 68.96s-49.918 19.043-68.959 0l-322.177-322.177c-2.47-2.47-4.647-5.177-6.51-8.069z" />
<glyph unicode="&#xe915;" glyph-name="average-rating" horiz-adv-x="1761" d="M364.998 676.375c25.87 71.031 89.596 127.678 154.563 138.589 31.093 5.222 63.533 0.352 95.429-19.483 32.506-20.217 67.584-58.025 98.607-123.7l141.038-294.891c0.737-1.548 1.54-3.043 2.404-4.485l93.049-194.56c37.413-79.151 84.718-135.34 139.26-169.263 55.185-34.32 114.495-43.729 170.529-34.316 109.281 18.354 201.31 106.598 238.35 208.298 10.228 28.090-4.248 59.15-32.338 69.382-28.086 10.228-59.15-4.248-69.378-32.338-25.87-71.029-89.596-127.676-154.567-138.588-31.093-5.222-63.533-0.352-95.425 19.485-32.506 20.218-67.584 58.024-98.607 123.699l-141.038 294.892c-0.737 1.548-1.544 3.043-2.404 4.485l-93.053 194.559c-37.409 79.153-84.713 135.343-139.26 169.266-55.181 34.321-114.491 43.726-170.525 34.316-109.282-18.354-201.311-106.601-238.35-208.3-10.23-28.088 4.247-59.15 32.335-69.38s59.151 4.247 69.381 32.335zM16.16 393.896c0 29.893 24.233 54.125 54.126 54.125h101.301c29.893 0 54.126-24.232 54.126-54.125s-24.233-54.129-54.126-54.129h-101.301c-29.893 0-54.126 24.236-54.126 54.129zM320.062 393.896c0 29.893 24.233 54.125 54.126 54.125h202.602c29.893 0 54.125-24.232 54.125-54.125s-24.232-54.129-54.125-54.129h-202.602c-29.893 0-54.126 24.236-54.126 54.129zM1130.467 393.896c0 29.893 24.232 54.125 54.125 54.125h202.605c29.893 0 54.125-24.232 54.125-54.125s-24.232-54.129-54.125-54.129h-202.605c-29.893 0-54.125 24.236-54.125 54.129zM1535.672 393.896c0 29.893 24.232 54.125 54.125 54.125h101.298c29.897 0 54.129-24.232 54.129-54.125s-24.232-54.129-54.129-54.129h-101.298c-29.893 0-54.125 24.236-54.125 54.129z" />
<glyph unicode="&#xe916;" glyph-name="star" horiz-adv-x="1049" d="M729.29 662.491c-5.754 1.653-10.72 5.32-13.999 10.33l-166.984 255.234c-9.86 15.069-31.941 15.069-41.802 0l-166.984-255.234c-3.277-5.010-8.244-8.677-13.996-10.33l-290.173-83.454c-16.954-4.875-23.646-25.315-12.86-39.274l187.145-242.186c3.582-4.635 5.421-10.385 5.194-16.239l-11.922-307.714c-0.692-17.855 17.044-30.64 33.765-24.339l281.925 106.249c5.677 2.138 11.938 2.138 17.615 0l281.925-106.249c16.721-6.301 34.456 6.484 33.765 24.339l-11.921 307.714c-0.227 5.854 1.611 11.604 5.192 16.239l187.145 242.186c10.787 13.959 4.096 34.399-12.86 39.274l-290.169 83.454z" />
<glyph unicode="&#xe917;" glyph-name="star-off" horiz-adv-x="1049" d="M735.142 662.491c-5.752 1.653-10.72 5.32-13.996 10.33l-166.987 255.234c-9.858 15.069-31.939 15.069-41.799 0l-166.984-255.234c-3.279-5.010-8.244-8.677-13.999-10.33l-290.171-83.454c-16.954-4.875-23.646-25.315-12.86-39.274l187.144-242.186c3.583-4.635 5.421-10.385 5.194-16.239l-11.922-307.714c-0.692-17.855 17.044-30.64 33.765-24.339l281.926 106.249c5.677 2.138 11.938 2.138 17.615 0l281.925-106.249c16.719-6.301 34.456 6.484 33.765 24.339l-11.923 307.714c-0.225 5.854 1.613 11.604 5.195 16.239l187.145 242.186c10.787 13.959 4.094 34.399-12.86 39.274l-290.172 83.454z" />
<glyph unicode="&#xe918;" glyph-name="times" d="M117.906 919.771c-29.053-8.293-52.753-27.183-67.149-52.12l-0.289-0.543c-8.389-14.249-13.344-31.39-13.344-49.689 0-0.892 0.012-1.78 0.035-2.666l-0.003 0.131c-0.061-1.311-0.095-2.848-0.095-4.393 0-17.343 4.368-33.666 12.063-47.929l-0.265 0.537c5.705-11.41 15.799-21.943 157.403-163.694l151.259-151.406-151.259-151.406c-141.605-141.751-151.698-152.283-157.403-163.694-7.431-13.726-11.798-30.049-11.798-47.392 0-1.545 0.035-3.082 0.103-4.61l-0.008 0.217c0.146-30.72 10.24-54.711 31.89-76.215 18.617-19.584 44.861-31.766 73.951-31.766 0.745 0 1.487 0.008 2.228 0.024l-0.11-0.002c1.326-0.062 2.88-0.098 4.443-0.098 17.442 0 33.85 4.424 48.165 12.211l-0.53-0.264c10.971 5.705 24.137 18.432 163.401 157.403l151.406 151.113 151.406-151.113c139.264-138.971 152.43-151.698 163.401-157.403 13.784-7.523 30.193-11.947 47.635-11.947 1.563 0 3.117 0.036 4.662 0.106l-0.219-0.008c0.645-0.015 1.405-0.023 2.167-0.023 29.102 0 55.344 12.245 73.855 31.864l0.046 0.050c19.668 18.557 31.913 44.799 31.913 73.901 0 0.762-0.008 1.522-0.025 2.28l0.002-0.113c0.062 1.326 0.098 2.88 0.098 4.443 0 17.442-4.424 33.85-12.211 48.165l0.264-0.53c-5.705 10.971-18.432 24.137-157.403 163.401l-151.113 151.406 151.113 151.406c138.971 139.264 151.698 152.43 157.403 163.401 7.523 13.784 11.947 30.193 11.947 47.635 0 1.563-0.036 3.117-0.106 4.662l0.008-0.219c0.004 0.352 0.007 0.767 0.007 1.183 0 37.266-19.3 70.024-48.45 88.824l-0.416 0.251c-14.467 10.537-32.594 16.858-52.196 16.858-0.884 0-1.765-0.013-2.643-0.038l0.129 0.003c-3.088 0.348-6.668 0.547-10.294 0.547-16.801 0-32.605-4.265-46.39-11.772l0.509 0.254c-11.264-5.705-23.698-17.701-163.694-157.403l-151.406-151.113-151.406 151.113c-139.995 139.703-152.43 151.698-163.694 157.403-6.568 3.483-14.206 6.484-22.201 8.605l-0.765 0.173c-8.423 1.57-18.113 2.469-28.014 2.469s-19.591-0.898-28.995-2.618l0.981 0.149z" />
<glyph unicode="&#xe919;" glyph-name="ex-mark" horiz-adv-x="236" d="M227.446 960l-19.199-708.012h-180.179l-19.692 708.012h219.070zM118.157-64c-32.491 0-60.388 11.524-83.69 34.564-23.302 23.371-34.789 51.342-34.461 83.929-0.328 32.264 11.159 59.912 34.461 82.952s51.199 34.556 83.69 34.556c31.179 0 58.583-11.516 82.213-34.556s35.609-50.688 35.938-82.952c-0.328-21.725-6.072-41.637-17.23-59.739-10.831-17.77-25.107-32.091-42.83-42.953-17.722-10.531-37.086-15.801-58.091-15.801z" />
<glyph unicode="&#xe91a;" glyph-name="circle" d="M479.604 958.976c6.902 0.433-1.614-0.458-10.139-1.319l-14.623-1.195c-171.38-17.129-329.914-129.955-405.132-288.489-31.256-64.357-49.526-139.993-49.526-219.895 0-97.003 26.927-187.716 73.714-265.074l-1.287 2.293c70.411-116 182.498-200.729 315.019-233.932l3.538-0.751c44.963-10.985 67.77-13.591 120.832-13.591 39.936 0 50.641 0.652 71.68 3.817 90.184 13.334 170.386 48.29 237.625 99.414l-1.267-0.924c108.451 82.013 177.99 199.68 199.121 336.989 3.165 21.039 3.817 31.744 3.817 71.68 0 53.062-2.607 75.869-13.591 120.832-51.035 205.197-220.952 359.532-430.766 386.799l-2.572 0.273c-22.817 2.106-49.347 3.306-76.157 3.306-7.133 0-14.246-0.085-21.338-0.254l1.052 0.020zM568.972 815.895c111.303-17.99 204.622-82.905 260.473-173.399l0.926-1.612c33.551-55.058 53.414-121.652 53.414-192.884s-19.863-137.827-54.352-194.545l0.938 1.66c-33.395-53.58-77.929-97.221-130.613-128.61l-1.762-0.973c-53.383-31.278-117.554-49.748-186.040-49.748-84.092 0-161.68 27.847-224.045 74.824l0.951-0.686c-27.381 21.709-51.424 45.604-72.58 71.919l-0.683 0.878c-36.049 47.29-61.404 104.625-71.397 167.090l-0.283 2.149c-1.912 16.827-3.002 36.33-3.002 56.087s1.091 39.261 3.215 58.453l-0.213-2.365c26.642 169.387 164.333 299.673 335.109 314.733l1.415 0.101c14.15 1.489 72.332-0.559 88.529-3.072z" />
<glyph unicode="&#xe91b;" glyph-name="info-danger" d="M555.604 904.096c13.819-5.727 26.381-14.122 36.956-24.704l350.891-350.834c10.593-10.578 18.995-23.14 24.724-36.966 5.734-13.827 8.681-28.649 8.681-43.617s-2.947-29.79-8.681-43.617c-5.729-13.827-14.131-26.388-24.724-36.964l-350.891-350.834c-10.576-10.587-23.137-18.978-36.956-24.707-13.822-5.729-28.637-8.676-43.599-8.676s-29.776 2.947-43.598 8.676c-13.822 5.729-26.38 14.12-36.957 24.707l-350.891 350.834c-10.59 10.576-18.992 23.137-24.725 36.964s-8.683 28.649-8.683 43.617c0 14.968 2.951 29.789 8.683 43.617s14.134 26.388 24.725 36.966l350.891 350.834c10.577 10.582 23.134 18.976 36.957 24.704s28.637 8.675 43.598 8.675c14.962 0 29.776-2.948 43.599-8.675zM471.779 350.891c10.669-10.672 25.139-16.663 40.227-16.663s29.558 5.99 40.227 16.663c10.668 10.667 16.662 25.134 16.662 40.224v284.444c0 15.088-5.994 29.558-16.662 40.227s-25.139 16.662-40.227 16.662c-15.088 0-29.558-5.994-40.227-16.662s-16.662-25.139-16.662-40.227v-284.444c0-15.090 5.994-29.557 16.662-40.224zM471.779 180.224c10.669-10.672 25.139-16.663 40.227-16.663s29.558 5.99 40.227 16.663c10.668 10.667 16.662 25.134 16.662 40.226 0 15.087-5.994 29.554-16.662 40.226-10.669 10.667-25.139 16.663-40.227 16.663s-29.558-5.996-40.227-16.663c-10.668-10.672-16.662-25.139-16.662-40.226 0-15.093 5.994-29.559 16.662-40.226z" />
<glyph unicode="&#xe91c;" glyph-name="star-black" horiz-adv-x="1103" d="M753.124 665.052l-201.74 294.948-201.739-294.948-349.646-96.185 224.965-278.473-14.354-354.394 340.774 122.841 340.771-122.841-14.352 354.394 224.965 278.473-349.645 96.185z" />
<glyph unicode="&#xe91d;" glyph-name="info-circle" d="M512-64c282.778 0 512 229.222 512 512s-229.222 512-512 512c-282.778 0-512-229.222-512-512s229.222-512 512-512zM563.2 652.8c0-28.277-22.922-51.2-51.2-51.2s-51.2 22.923-51.2 51.2c0 28.277 22.923 51.2 51.2 51.2s51.2-22.923 51.2-51.2zM512 550.4c28.278 0 51.2-22.923 51.2-51.2v-256c0-28.278-22.922-51.2-51.2-51.2s-51.2 22.922-51.2 51.2v256c0 28.277 22.923 51.2 51.2 51.2z" />
<glyph unicode="&#xe91e;" glyph-name="reshot-icon-bell-FH3CWR6ZT9" d="M976.077 140.8l-70.861 28.672c-25.706 23.489-42.052 56.85-43.005 94.039l-0.003 0.169c0 93.798-2.048 254.771-2.048 260.915v70.042c0.044 1.979 0.070 4.31 0.070 6.647 0 172.831-137.943 313.444-309.737 317.748l-0.399 0.008h-76.186c-172.194-4.312-310.137-144.925-310.137-317.756 0-2.337 0.025-4.669 0.075-6.994l-0.006 0.347v-330.957c-0.794-37.597-17.348-71.176-43.298-94.512l-0.119-0.106-72.499-28.262c-7.686-2.93-13.047-10.24-13.047-18.801 0-1.318 0.127-2.606 0.37-3.853l-0.020 0.127c1.802-9.591 10.094-16.756 20.066-16.794h275.255c12.698-69.222 88.883-122.88 181.453-122.88s168.755 53.658 181.453 122.88h275.251c9.976 0.038 18.268 7.203 20.050 16.666l0.020 0.127c0.222 1.12 0.349 2.409 0.349 3.727 0 8.562-5.361 15.871-12.909 18.755l-0.138 0.046zM512 17.92c-3.757-0.357-8.123-0.56-12.537-0.56-56.566 0-105.324 33.43-127.595 81.61l-0.361 0.87h280.986c-22.632-49.051-71.39-82.48-127.956-82.48-4.414 0-8.78 0.204-13.090 0.602l0.553-0.041zM149.914 140.8c33.041 30.833 53.925 74.327 54.884 122.707l0.003 0.173v330.957c-0.051 1.983-0.080 4.319-0.080 6.661 0 150.213 119.615 272.489 268.792 276.773l0.395 0.009h76.186c149.572-4.293 269.187-126.569 269.187-276.782 0-2.342-0.029-4.677-0.087-7.006l0.007 0.345v-70.861c0-6.144 0-167.117 2.048-261.734 0.354-48.359 20.702-91.898 53.177-122.813l0.071-0.067z" />
<glyph unicode="&#xe91f;" glyph-name="bell" d="M832 137.28c-19.924 62.915-31.593 135.301-31.999 210.352l-0.001 0.208v170.24c0.047 1.904 0.073 4.147 0.073 6.395 0 123.134-79.573 227.682-190.102 265.027l-1.971 0.578v9.92c0 53.019-42.981 96-96 96s-96-42.981-96-96v0-9.28c-113.488-37.232-193.999-142.213-193.999-265.999 0-2.335 0.029-4.663 0.086-6.985l-0.007 0.344v-170.24c-0.236-75.219-11.918-147.625-33.394-215.682l1.394 5.122c-0.878-2.785-1.384-5.989-1.384-9.31 0-17.673 14.327-32 32-32 0.487 0 0.971 0.011 1.453 0.032l-0.068-0.002h166.4c14.683-55.512 64.369-95.802 123.497-96h0.023c58.759 0.653 107.962 40.797 122.359 95.107l0.201 0.893h165.44c10.433 0 19.7 4.993 25.542 12.72l0.058 0.080c4.613 5.507 7.415 12.668 7.415 20.484 0 2.842-0.37 5.597-1.065 8.22l0.050-0.223zM480 800c0 17.673 14.327 32 32 32s32-14.327 32-32v0h-64zM512 64v0c-23.292 0.266-43.566 12.933-54.556 31.698l-0.164 0.302h111.36c-11.27-19.271-31.863-32.011-55.432-32.011-0.425 0-0.848 0.004-1.271 0.012l0.063-0.001zM608 160h-344.32c14.16 56.39 22.323 121.143 22.4 187.79v170.29c0 120 87.36 217.92 193.92 217.92h60.8c107.52 0 195.2-97.92 195.2-217.92v-170.24c0.077-66.697 8.24-131.45 23.56-193.381l-1.16 5.541z" />
<glyph unicode="&#xe920;" glyph-name="bell2" d="M976.077 140.8l-70.861 28.672c-25.706 23.489-42.052 56.85-43.005 94.039l-0.003 0.169c0 93.798-2.048 254.771-2.048 260.915v70.042c0.044 1.979 0.070 4.31 0.070 6.647 0 172.831-137.943 313.444-309.737 317.748l-0.399 0.008h-76.186c-172.194-4.312-310.137-144.925-310.137-317.756 0-2.337 0.025-4.669 0.075-6.994l-0.006 0.347v-70.861c0-6.144 0-167.117 0-260.096-0.794-37.597-17.348-71.176-43.298-94.512l-0.119-0.106-72.499-28.262c-7.686-2.93-13.047-10.24-13.047-18.801 0-1.318 0.127-2.606 0.37-3.853l-0.020 0.127c1.802-9.591 10.094-16.756 20.066-16.794h275.255c12.698-69.222 88.883-122.88 181.453-122.88s168.755 53.658 181.453 122.88h275.251c9.976 0.038 18.268 7.203 20.050 16.666l0.020 0.127c0.222 1.12 0.349 2.409 0.349 3.727 0 8.562-5.361 15.871-12.909 18.755l-0.138 0.046zM512 17.92c-3.757-0.357-8.123-0.56-12.537-0.56-56.566 0-105.324 33.43-127.595 81.61l-0.361 0.87h280.986c-22.632-49.051-71.39-82.48-127.956-82.48-4.414 0-8.78 0.204-13.090 0.602l0.553-0.041zM149.914 140.8c33.041 30.833 53.925 74.327 54.884 122.707l0.003 0.173c0 94.618 0 255.59 0 261.734v69.222c-0.051 1.983-0.080 4.319-0.080 6.661 0 150.213 119.615 272.489 268.792 276.773l0.395 0.009h76.186c149.572-4.293 269.187-126.569 269.187-276.782 0-2.342-0.029-4.677-0.087-7.006l0.007 0.345v-70.861c0-6.144 0-167.117 2.048-261.734 0.354-48.359 20.702-91.898 53.177-122.813l0.071-0.067z" />
<glyph unicode="&#xe921;" glyph-name="gift" d="M950.857 696.686h-81.92c23.406 28.087 38.034 63.195 38.034 102.4 0 88.942-71.973 160.914-160.914 160.914-98.304 0-184.905-52.078-234.057-129.317-49.152 77.239-135.753 129.317-234.057 129.317-88.942 0-160.914-71.973-160.914-160.914 0-39.205 14.629-74.313 38.034-102.4h-81.92c-40.375 0-73.143-32.768-73.143-73.143v-146.286c0-35.109 25.161-63.195 58.514-70.217v-397.897c0-40.375 32.768-73.143 73.143-73.143h760.686c40.375 0 73.143 32.768 73.143 73.143v397.897c33.353 7.022 58.514 35.109 58.514 70.217v146.286c0 40.375-32.768 73.143-73.143 73.143zM936.229 491.886h-380.343v117.029h380.343v-117.029zM746.057 872.229c40.375 0 73.143-32.768 73.143-73.143s-32.768-73.143-73.143-73.143h-184.905c19.895 83.675 95.378 146.286 184.905 146.286zM277.943 872.229c89.527 0 165.010-62.61 184.905-146.286h-184.905c-40.375 0-73.143 32.768-73.143 73.143s32.768 73.143 73.143 73.143zM87.771 608.914h380.343v-117.029h-380.343v117.029zM146.286 404.114h321.829v-380.343h-321.829v380.343zM877.714 23.771h-321.829v380.343h321.829v-380.343z" />
<glyph unicode="&#xe922;" glyph-name="tiktok" d="M532.992 927.072c52.384 0.8 104.384 0.384 156.352 0.8 1.728-64.992 28.096-123.488 70.048-166.816l-0.064 0.064c45.152-40.672 103.904-67.040 168.672-71.52l0.896-0.064v-161.152c-61.184 1.536-118.72 15.648-170.592 39.904l2.624-1.088c-25.088 12.064-46.304 24.448-66.464 38.272l1.664-1.088c-0.384-116.768 0.384-233.536-0.8-349.888-3.296-59.296-23.008-113.376-54.624-158.528l0.64 0.992c-52.864-75.712-138.496-125.408-235.872-128.352h-0.448c-3.936-0.192-8.576-0.288-13.248-0.288-55.36 0-107.104 15.424-151.2 42.208l1.28-0.736c-80.256 48.288-135.616 130.912-145.856 227.008l-0.128 1.312c-0.8 20-1.184 40-0.384 59.584 15.68 152.928 143.808 271.232 299.552 271.232 17.504 0 34.656-1.504 51.328-4.352l-1.792 0.256c0.8-59.168-1.6-118.368-1.6-177.536-13.536 4.896-29.152 7.744-45.44 7.744-59.776 0-110.624-38.208-129.44-91.552l-0.288-0.96c-4.256-13.664-6.72-29.376-6.72-45.632 0-6.592 0.416-13.12 1.184-19.52l-0.064 0.768c10.624-65.472 66.752-114.88 134.432-114.88 1.952 0 3.872 0.032 5.792 0.128h-0.288c46.816 1.408 87.456 26.592 110.432 63.808l0.32 0.576c8.544 11.904 14.4 26.304 16.352 41.952l0.032 0.448c4 71.584 2.4 142.752 2.784 214.336 0.384 161.152-0.384 321.92 0.8 482.656z" />
<glyph unicode="&#xe923;" glyph-name="facebook" d="M655.36 734.72h102.4c11.305 0 20.48 9.175 20.48 20.48v137.974c0 10.732-8.253 19.661-18.944 20.419-32.584 2.314-96.236 5.448-142.008 5.448-125.768 0-207.688-75.366-207.688-212.337v-135.823h-143.36c-11.305 0-20.48-9.175-20.48-20.48v-143.36c0-11.305 9.175-20.48 20.48-20.48h143.36v-389.12c0-11.305 9.175-20.48 20.48-20.48h143.36c11.305 0 20.48 9.175 20.48 20.48v389.12h147.907c10.445 0 19.21 7.844 20.357 18.227l15.933 143.36c1.352 12.124-8.151 22.733-20.357 22.733h-163.84v102.4c0 33.935 27.505 61.44 61.44 61.44z" />
</font>
</defs>
</svg>
